alphaville forever young flac sorted by
relevance

Admin16.07.2021

Index of ftp://89.179.242.201/Music/Flac/Muzic FLAC/

Even when the band takes itself too seriously, the songs' catchy drive and consistently smart production cover any thematic holes.
7808
Admin23.09.2021

Alphaville

08 32791 53348 4 11:51.
6102
Admin30.07.2021

Alphaville

00b October 5 2013 at 22:55 0.
3106
Admin13.07.2021

Alphaville ‎

5 MB 45 2 Apr.
6409
Admin06.08.2021

Index of ftp://89.179.242.201/Music/Flac/Muzic FLAC/

Borrowing inspiration from Roxy Music's detached theatricality and Kraftwerk's beats and rhythms, Gold and company hit upon a magic formula that produced here an album's worth of impossibly catchy tunes that could almost serve as pure definitions for the synth pop genre.
1010
Admin17.07.2021

Alphaville

Even when the band takes itself too seriously, the songs' catchy drive and consistently smart production cover any thematic holes.
Admin16.09.2021

Index of ftp://89.179.242.201/Music/Flac/Muzic FLAC/

"Big in Japan" feels like a more serious cousin to Murray Head's "One Night in Bangkok," as a slow-pounding beat spars with Gold's desperate voice.
1706
Admin22.07.2021

Alphaville

Artist: Alphaville Album: Forever Young Label: Olaf Thulemann Productions Catalog : OTP 334 Released: 2018 Genre: Electronic, Synth-pop Country: Germany Duration: 00:58:12 Tracklisting: 01.
6403
Admin22.07.2021

Alphaville

Britpop is deeply linked to politics and local identity and emerged just as Tony Blair and New Labour were entering the scene.
Admin30.07.2021

LosslessClub :: Alphaville

flac" WAVE TRACK 01 AUDIO TITLE "Big In Japan Single Version " PERFORMER "Alphaville" REM COMPOSER "" INDEX 01 00:00:00 TRACK 02 AUDIO TITLE "Seeds" PERFORMER "Alphaville" REM COMPOSER "" INDEX 00 03:54:52 INDEX 01 03:56:52 TRACK 03 AUDIO TITLE "Sounds Like A Melody Single Version " PERFORMER "Alphaville" REM COMPOSER "" INDEX 00 07:15:16 INDEX 01 07:17:16 TRACK 04 AUDIO TITLE "The Nelson Highrise Sector 1-The Elevator Single Version " PERFORMER "Alphaville" REM COMPOSER "" INDEX 00 11:49:24 INDEX 01 11:51:24 TRACK 05 AUDIO TITLE "Forever Young Version Rapide " PERFORMER "Alphaville" REM COMPOSER "" INDEX 00 15:09:00 INDEX 01 15:11:00 TRACK 06 AUDIO TITLE "Welcome To The Sun" PERFORMER "Alphaville" REM COMPOSER "" INDEX 00 19:02:28 INDEX 01 19:04:28 TRACK 07 AUDIO TITLE "The Jet Set Single Remix " PERFORMER "Alphaville" REM COMPOSER "" INDEX 00 22:16:20 INDEX 01 22:18:20 TRACK 08 AUDIO TITLE "Golden Feeling" PERFORMER "Alphaville" REM COMPOSER "" INDEX 00 26:10:72 INDEX 01 26:12:72 TRACK 09 AUDIO TITLE "Big In Japan Extended Remix " PERFORMER "Alphaville" REM COMPOSER "" INDEX 00 30:06:39 INDEX 01 30:08:39 TRACK 10 AUDIO TITLE "Sounds Like A Melody Special Long Version " PERFORMER "Alphaville" REM COMPOSER "" INDEX 00 37:33:52 INDEX 01 37:35:52 TRACK 11 AUDIO TITLE "The Nelson Highrise Sector 1-The Elevator" PERFORMER "Alphaville" REM COMPOSER "" INDEX 00 45:20:15 INDEX 01 45:22:15 TRACK 12 AUDIO TITLE "Forever Young Special Extended Dance Mix " PERFORMER "Alphaville" REM COMPOSER "" INDEX 00 49:36:01 INDEX 01 49:38:01 TRACK 13 AUDIO TITLE "The Jet Set Jellybean Mix " PERFORMER "Alphaville" REM COMPOSER "" INDEX 00 55:49:65 INDEX 01 55:51:65 TRACK 14 AUDIO TITLE "Big In Japan Extended Instrumental " PERFORMER "Alphaville" REM COMPOSER "" INDEX 00 62:23:20 INDEX 01 62:25:20 TRACK 15 AUDIO TITLE "The Jet Set Dub Mix " PERFORMER "Alphaville" REM COMPOSER "" INDEX 00 68:23:19 INDEX 01 68:25:19 REM GENRE Pop REM DATE 2019 REM DISCID F010CD10 REM COMMENT "ExactAudioCopy v1.
1303
Admin08.09.2021

Alphaville ‎

It's also a wonderfully fun ride from start to finish.
7808